<?xml version="1.0" standalone="no"?>
<!DOCTYPE svg PUBLIC "-//W3C//DTD SVG 1.1//EN" "http://www.w3.org/Graphics/SVG/1.1/DTD/svg11.dtd" >
<svg xmlns="http://www.w3.org/2000/svg">
<metadata></metadata>
<defs>
<font id="paralucent-mediumuploadedfile" horiz-adv-x="1171" >
<font-face units-per-em="2048" ascent="1573" descent="-475" />
<missing-glyph horiz-adv-x="460" />
<glyph horiz-adv-x="0" />
<glyph unicode="&#xd;" horiz-adv-x="681" />
<glyph unicode=" "  horiz-adv-x="460" />
<glyph unicode="&#x09;" horiz-adv-x="460" />
<glyph unicode="&#xa0;" horiz-adv-x="460" />
<glyph unicode="!" horiz-adv-x="393" d="M41 117q0 76 40 104.5t117.5 28.5t118.5 -28.5t41 -104.5t-39.5 -103.5t-119.5 -27.5t-119 27.5t-39 103.5zM102 799v512h197v-512l-35 -451h-127z" />
<glyph unicode="&#x22;" horiz-adv-x="659" d="M72 1171v140h196v-140l-32 -378h-130zM391 1171v140h197v-140l-35 -378h-125z" />
<glyph unicode="#" horiz-adv-x="1548" d="M53 346v178h303l84 248h-387v182h449l121 357h215l-121 -357h309l121 357h215l-121 -357h254v-182h-315l-84 -248h399v-178h-461l-114 -346h-220l117 346h-307l-117 -346h-217l115 346h-238zM571 524h310l84 248h-310z" />
<glyph unicode="$" horiz-adv-x="1073" d="M55 389h215q0 -231 287 -231q127 0 186.5 39t63.5 92q4 61 -68.5 96t-180 53.5t-216.5 43t-186.5 88t-79.5 167.5q-2 131 91 217t286 103v248h196v-252q356 -43 357 -383h-215q-6 109 -65.5 164t-197.5 55q-129 0 -184 -40t-51 -101q2 -51 77.5 -81t182 -48.5t213 -46 t181.5 -96.5t75 -175q0 -121 -101.5 -206t-271.5 -105v-258h-196v258q-401 37 -398 399z" />
<glyph unicode="%" horiz-adv-x="2533" d="M80 839.5q0 100.5 21.5 178.5t73.5 147.5t157.5 107.5t259.5 38h1018l-445 -1311h-219l385 1128h-440q121 -82 121 -286q0 -475 -469 -475q-137 0 -232.5 37.5t-143.5 107.5t-67.5 148.5t-19.5 179zM274 842q0 -137 59.5 -213t209.5 -76q152 0 213 76t61 213 q0 131 -59.5 208.5t-212.5 77.5q-152 0 -211.5 -75.5t-59.5 -210.5zM1524 457q0 471 465 471q467 0 467 -471t-469 -471q-463 0 -463 471zM1718 457q0 -135 59.5 -212t209.5 -77q152 0 213 76t61 213q0 135 -59.5 213t-212.5 78q-152 0 -211.5 -78t-59.5 -213z" />
<glyph unicode="&#x26;" horiz-adv-x="1390" d="M104 397q0 86 31 155t84 111t107.5 67.5t117.5 39.5l-260 317v224h871v-185h-635l532 -643q39 150 39 389h211q0 -334 -98 -546l293 -326h-273l-137 162q-156 -176 -391 -176q-240 0 -366 109.5t-126 301.5zM326 397q0 -106 67.5 -163.5t194.5 -57.5q180 0 276 111 l-289 329q-250 -31 -249 -219z" />
<glyph unicode="'" horiz-adv-x="339" d="M72 1171v140h196v-140l-32 -378h-130z" />
<glyph unicode="(" horiz-adv-x="696" d="M92 659q0 193 25.5 330t89 244.5t178.5 161t283 53.5v-164q-96 0 -166 -30.5t-111 -81t-65.5 -133.5t-32.5 -171t-8 -209q0 -158 13 -261t53 -192t118 -132t199 -43v-166q-168 0 -284 54t-178.5 162.5t-88 246t-25.5 331.5z" />
<glyph unicode=")" horiz-adv-x="696" d="M29 31q121 0 198.5 43t117.5 132t53.5 192.5t13.5 260.5q0 121 -8.5 209t-33 171t-65.5 133.5t-110.5 81t-165.5 30.5v164q324 0 449.5 -198t125.5 -591q0 -195 -25.5 -332t-88 -245.5t-178 -162.5t-283.5 -54v166z" />
<glyph unicode="*" horiz-adv-x="960" d="M66 782l249 127l-249 123l92 148l239 -144l-10 275h186l-16 -275l242 142l94 -146l-254 -123l254 -127l-94 -145l-242 143l16 -258h-186l10 258l-239 -143z" />
<glyph unicode="+" horiz-adv-x="1247" d="M53 432v184h471v433h197v-433h469v-184h-469v-432h-197v432h-471z" />
<glyph unicode="," horiz-adv-x="417" d="M53 121q0 74 40 101.5t120 27.5q86 0 125 -38t27 -134l-50 -346h-141l19 258q-139 0 -140 131z" />
<glyph unicode="-" horiz-adv-x="765" d="M82 438v180h602v-180h-602z" />
<glyph unicode="." horiz-adv-x="419" d="M53 117q0 76 40 104.5t120 28.5q76 0 116 -28.5t40 -104.5q0 -74 -40 -102.5t-116 -28.5q-78 0 -119 28.5t-41 102.5z" />
<glyph unicode="/" horiz-adv-x="659" d="M0 0l449 1311h210l-444 -1311h-215z" />
<glyph unicode="0" horiz-adv-x="1249" d="M80 655.5q0 157.5 23.5 271t82 208t168 142.5t269.5 48q162 0 271.5 -48t168.5 -142.5t82.5 -209t23.5 -272.5q0 -156 -23.5 -270.5t-82.5 -207.5t-169 -141t-271 -48q-160 0 -269.5 48t-168 142t-82 208t-23.5 271.5zM305 655.5q0 -245.5 64.5 -363.5t253.5 -118 q190 0 255.5 117.5t65.5 361.5q0 248 -65.5 367t-255.5 119q-186 0 -252 -119t-66 -364.5z" />
<glyph unicode="1" horiz-adv-x="628" d="M20 1126v154l256 31h220v-1311h-226v1126h-250z" />
<glyph unicode="2" horiz-adv-x="1146" d="M84 0v199q0 119 55.5 206t138 133t180 88t181.5 71.5t142.5 83t62.5 124.5q16 236 -260 236q-268 0 -269 -283h-219q0 467 482 467q262 0 380.5 -116.5t108.5 -315.5q-6 -125 -88 -212t-193.5 -133t-221 -87t-186.5 -102.5t-77 -149.5v-25h764v-186z" />
<glyph unicode="3" horiz-adv-x="1136" d="M70 451h211q0 -131 74.5 -206t219.5 -75q131 0 197 69.5t66 172.5q0 117 -75 179t-267 62h-197v164l463 309h-645v185h891v-236l-441 -256q100 0 185.5 -21.5t155 -67.5t109.5 -126.5t40 -191.5q0 -184 -122 -305t-368 -121q-256 0 -376.5 127t-120.5 338z" />
<glyph unicode="4" horiz-adv-x="1202" d="M35 274v205l618 832h299v-856h230v-181h-230v-274h-225v274h-692zM250 455h477v632z" />
<glyph unicode="5" horiz-adv-x="1148" d="M106 451h220q0 -133 70.5 -207t215.5 -74q131 0 195.5 76t64.5 184q0 121 -74.5 185.5t-246.5 64.5h-406v631h883l-2 -185h-659v-268h247q92 0 172 -21.5t152 -67.5t114 -133t42 -206q0 -193 -122 -318.5t-368 -125.5q-256 0 -377 127t-121 338z" />
<glyph unicode="6" horiz-adv-x="1212" d="M80 657q0 352 127 510t405 158q248 0 371 -99.5t123 -320.5h-221q0 123 -63.5 179.5t-209.5 56.5q-100 0 -166.5 -36t-98.5 -107.5t-42 -154.5t-8 -204q20 78 112.5 134t254.5 56q129 0 230 -36.5t171 -132t70 -240.5q0 -190 -126 -312t-382 -122q-309 0 -428 161.5 t-119 509.5zM317 420q0 -109 79 -180.5t233 -71.5q131 0 207.5 67.5t76.5 184.5q0 233 -301 233q-145 0 -220 -65.5t-75 -167.5z" />
<glyph unicode="7" horiz-adv-x="962" d="M33 1126v185h923v-211l-575 -1100h-244l608 1126h-712z" />
<glyph unicode="8" horiz-adv-x="1241" d="M80 350q0 233 246 314q-219 72 -220 305q0 174 116 265t401 91q508 0 507 -336q0 -223 -215 -291q123 -37 184.5 -124.5t61.5 -200.5q0 -387 -536 -387q-127 0 -225.5 21.5t-158 57t-97.5 85t-51 97.5t-13 103zM301 377q0 -207 324 -207q315 0 315 207q0 96 -72.5 158.5 t-244.5 62.5q-176 0 -249 -62.5t-73 -158.5zM330 950q0 -43 9 -72.5t36.5 -59.5t90 -45t157.5 -15q178 0 235 51t57 141q0 94 -55 143.5t-237 49.5q-180 0 -236.5 -49.5t-56.5 -143.5z" />
<glyph unicode="9" horiz-adv-x="1208" d="M80 895q0 193 125 311.5t383 118.5q309 0 423.5 -160t114.5 -508q0 -358 -129 -514.5t-409 -156.5q-250 0 -378 101t-128 325h219q0 -244 287 -244q102 0 169.5 37t100.5 110.5t43 157.5t8 205q-20 -80 -109 -136.5t-249 -56.5q-203 0 -337 99.5t-134 310.5zM301 895 q0 -229 303 -229q143 0 214 64.5t71 164.5q0 109 -76 179.5t-227 70.5q-133 0 -209 -66.5t-76 -183.5z" />
<glyph unicode=":" horiz-adv-x="419" d="M53 117q0 76 40 104.5t120 28.5q76 0 116 -28.5t40 -104.5q0 -131 -156 -131q-78 0 -119 28.5t-41 102.5zM53 932q0 76 40 103.5t120 27.5q76 0 116 -28.5t40 -102.5q0 -133 -156 -133q-78 0 -119 29.5t-41 103.5z" />
<glyph unicode=";" horiz-adv-x="417" d="M53 121q0 74 40 101.5t120 27.5q86 0 125 -38t27 -134l-50 -346h-141l19 258q-139 0 -140 131zM53 932q0 74 41 102.5t119 28.5q76 0 116 -28.5t40 -102.5q0 -133 -156 -133q-78 0 -119 29.5t-41 103.5z" />
<glyph unicode="&#x3c;" horiz-adv-x="1107" d="M51 522l238 430h225l-186 -336h725v-178h-731l192 -352h-223z" />
<glyph unicode="=" horiz-adv-x="1300" d="M82 225v183h1137v-183h-1137zM82 657v181h1137v-181h-1137z" />
<glyph unicode="&#x3e;" horiz-adv-x="1107" d="M53 438v178h727l-188 345h225l240 -439l-240 -436h-225l194 352h-733z" />
<glyph unicode="?" horiz-adv-x="1093" d="M29 864q0 211 119.5 336t375.5 125q248 0 369 -118t121 -308q0 -113 -45 -197t-116 -127t-141.5 -63t-138.5 -20h-38l-33 -140h-187v307h164q313 6 314 240q0 104 -63.5 170t-197.5 66q-287 0 -286 -271h-217zM250 119q0 74 41 101.5t121 27.5q78 0 116.5 -27.5 t38.5 -101.5q0 -76 -40 -104.5t-115 -28.5q-78 0 -120 28.5t-42 104.5z" />
<glyph unicode="@" horiz-adv-x="1865" d="M92 657q0 840 840 840t840 -778q0 -119 -18.5 -206t-67 -159.5t-138.5 -110.5t-223 -38h-108l-35 151q-41 -74 -125 -117.5t-199 -43.5q-152 0 -248 70.5t-96 205.5q0 123 82 179.5t274 80.5l267 35q-2 90 -48.5 129t-164.5 39q-109 0 -146 -33t-37 -102h-198 q8 309 379 309q129 0 213 -27.5t124.5 -86t55 -123t14.5 -162.5v-340q135 0 187.5 80.5t52.5 269.5q0 137 -28 238.5t-95.5 188.5t-196.5 132t-317 45q-186 0 -315.5 -52t-197 -149.5t-96 -209t-28.5 -257.5q0 -160 31.5 -273.5t110.5 -206.5t227.5 -140t367.5 -47h365v-174 h-365q-229 0 -399 45t-272.5 117.5t-164 185t-83 229.5t-21.5 266zM715 473q0 -115 180 -115q242 1 242 265l-236 -35q-109 -16 -147.5 -42t-38.5 -73z" />
<glyph unicode="A" horiz-adv-x="1292" d="M-2 0l504 1311h305l491 -1311h-239l-88 256h-643l-95 -256h-235zM383 420h530l-264 745z" />
<glyph unicode="B" horiz-adv-x="1243" d="M135 0v1311h512q250 0 370 -89t120 -239q0 -104 -43 -185t-131 -102q100 -29 157.5 -119t57.5 -196q0 -168 -122 -274.5t-401 -106.5h-520zM360 184h304q168 0 225 51.5t57 147.5q0 61 -22.5 102t-65.5 60.5t-86 26t-104 6.5h-308v-394zM360 752h308q247 0 247 184 q0 92 -54 140t-206 48h-295v-372z" />
<glyph unicode="C" horiz-adv-x="1366" d="M92 655q0 115 15.5 208t57.5 181.5t108.5 148.5t174 96t248.5 36q303 0 447.5 -145.5t144.5 -368.5h-231q-23 328 -361 328q-113 0 -188.5 -37t-115.5 -106.5t-55 -150.5t-15 -189.5t15 -189.5t55 -150.5t116 -105.5t188 -36q340 0 361 330h231q0 -233 -142 -375.5 t-450 -142.5q-176 0 -299 52t-187.5 149.5t-91 210t-26.5 257.5z" />
<glyph unicode="D" horiz-adv-x="1323" d="M135 0v1311h500q295 0 446.5 -166t151.5 -481q0 -313 -161 -488.5t-458 -175.5h-479zM358 184h215q223 0 332 112t109 370q-2 258 -103.5 359t-324.5 101h-228v-942z" />
<glyph unicode="E" horiz-adv-x="1120" d="M135 0v1311h912v-185h-689v-366h625v-182h-625v-394h689v-184h-912z" />
<glyph unicode="F" horiz-adv-x="1067" d="M135 0v1311h891v-185h-668v-366h619v-182h-619v-578h-223z" />
<glyph unicode="G" horiz-adv-x="1406" d="M92 655q0 115 15.5 208t57.5 181.5t108.5 148.5t174 96t248.5 36q301 0 443.5 -129t142.5 -326h-229q-27 268 -357 269q-113 0 -188.5 -37t-115.5 -106.5t-55 -150.5t-15 -189.5t16 -189.5t56 -150.5t116 -105.5t186 -36q182 0 275.5 99.5t93.5 273.5h-385v184h608v-731 h-129l-55 203q-129 -217 -420 -217q-592 0 -592 669z" />
<glyph unicode="H" horiz-adv-x="1363" d="M135 0v1311h225v-551h644v551h227v-1311h-227v578h-644v-578h-225z" />
<glyph unicode="I" horiz-adv-x="491" d="M135 0v1311h225v-1311h-225z" />
<glyph unicode="J" horiz-adv-x="694" d="M0 2v180q57 -10 123 -10q125 0 169 50t44 155v934h225l2 -924q0 -213 -80 -305t-301 -92q-78 0 -182 12z" />
<glyph unicode="K" horiz-adv-x="1161" d="M135 0v1311h225v-570l529 570h303l-635 -625l670 -686h-305l-562 612v-612h-225z" />
<glyph unicode="L" horiz-adv-x="892" d="M141 0v1311h226v-1127h497v-184h-723z" />
<glyph unicode="M" horiz-adv-x="1822" d="M135 0v1311h334l381 -893l61 -170q-2 0 10.5 33.5t28 75.5t23.5 61l381 893h336v-1311h-226v1038l-440 -1038h-225l-441 1038v-1038h-223z" />
<glyph unicode="N" horiz-adv-x="1466" d="M141 0v1311h289l676 -1016v1016h225v-1311h-278l-686 1024v-1024h-226z" />
<glyph unicode="O" horiz-adv-x="1435" d="M92 657.5q0 145.5 29 258t95.5 209t192.5 148.5t308 52t309 -52t193.5 -149.5t94 -210.5t27.5 -260q0 -143 -27.5 -254.5t-94 -210t-193.5 -150.5t-309 -52t-309 53t-194 150.5t-94.5 210t-27.5 258zM322 657q0 -229 85 -357t310 -128q227 0 312 127t85 354 q0 111 -16.5 193t-58.5 151.5t-122.5 105.5t-199.5 36t-199 -36t-122 -105.5t-58 -150.5t-16 -190z" />
<glyph unicode="P" horiz-adv-x="1239" d="M135 0v1311h473q143 0 249 -30t161 -72t88 -105.5t41 -114.5t8 -117q0 -55 -5 -95t-20.5 -94t-51.5 -93t-91 -75t-148.5 -54.5t-213.5 -18.5h-265v-442h-225zM360 623h263q96 0 160.5 22.5t93 62.5t38 77.5t9.5 87t-10.5 87t-39 79.5t-94 64.5t-164.5 22.5h-256v-503z " />
<glyph unicode="Q" horiz-adv-x="1437" d="M92 655q0 145 29 258t95.5 210.5t192.5 149.5t308 52q147 0 256.5 -35t177.5 -92t110 -143t57 -177.5t15 -203.5q0 -166 -54 -310.5t-159 -195.5l230 -43v-125h-588q-199 0 -335 48t-206.5 141.5t-99.5 204t-29 261.5zM322 655.5q0 -108.5 16 -187.5t58 -146.5 t122 -101.5t199 -34q229 0 313 121t84 346q0 111 -16.5 192t-58.5 151.5t-122.5 106.5t-199.5 36t-199 -37t-122 -106.5t-58 -150.5t-16 -189.5z" />
<glyph unicode="R" horiz-adv-x="1239" d="M135 0v1311h467q141 0 245.5 -29t160 -70t89 -102t42 -110.5t8.5 -108.5q0 -399 -510 -399l555 -492h-303l-529 514v-514h-225zM360 659h256q178 0 241 66t63 166q0 235 -305 235h-3h-252v-467z" />
<glyph unicode="S" horiz-adv-x="1314" d="M96 469h226q10 -289 358 -289q315 0 315 193q0 72 -63.5 115.5t-158.5 61t-205.5 42t-207 53.5t-161 100.5t-66.5 178.5q0 186 127 293.5t397 107.5q274 0 406.5 -121t134.5 -340h-223q-8 139 -85 206t-241 67q-293 0 -293 -191q0 -66 63.5 -106.5t160 -57t207 -42 t207 -58.5t160 -108.5t63.5 -190.5q0 -76 -27 -142.5t-84 -126t-164.5 -94t-255.5 -34.5q-309 0 -447.5 125t-142.5 358z" />
<glyph unicode="T" horiz-adv-x="1015" d="M23 1126v185h972v-185h-377v-1126h-219v1126h-376z" />
<glyph unicode="U" horiz-adv-x="1339" d="M113 588v723h227v-713q0 -217 69.5 -315.5t260.5 -98.5q193 0 262 98.5t69 315.5v713h228v-723q0 -322 -130 -462t-429 -140t-428 140t-129 462z" />
<glyph unicode="V" horiz-adv-x="1284" d="M-10 1311h239l408 -1145l412 1145h241l-518 -1311h-276z" />
<glyph unicode="W" horiz-adv-x="1996" d="M10 1311h238l299 -1071l323 1071h267l321 -1071l301 1071h228l-398 -1311h-270l-322 1063l-317 -1063h-270z" />
<glyph unicode="X" horiz-adv-x="1202" d="M10 0l463 688l-428 623h266l291 -453l289 453h266l-428 -623l463 -688h-242l-348 535l-346 -535h-246z" />
<glyph unicode="Y" horiz-adv-x="1243" d="M-2 1311h238l378 -740l398 740h235l-518 -914v-397h-235v397z" />
<glyph unicode="Z" horiz-adv-x="1148" d="M76 0v221l743 905h-743v185h973v-209l-764 -918h790v-184h-999z" />
<glyph unicode="[" horiz-adv-x="624" d="M135 -135v1581h463v-166h-268v-1251h268v-164h-463z" />
<glyph unicode="\" horiz-adv-x="653" d="M-2 1311h211l448 -1311h-217z" />
<glyph unicode="]" horiz-adv-x="624" d="M25 29h270v1251h-270v166h467v-1581h-467v164z" />
<glyph unicode="^" horiz-adv-x="1126" d="M96 532v179l465 86l467 -88v-162v-15l-467 84z" />
<glyph unicode="_" horiz-adv-x="1536" d="M-49 -367h1638v-182h-1638v182z" />
<glyph unicode="`" horiz-adv-x="1128" d="M125 1268v178l881 -137v-183z" />
<glyph unicode="a" horiz-adv-x="1124" d="M63 307q0 143 104.5 215t332.5 94l329 33q-4 123 -63 181.5t-209 58.5q-139 0 -193.5 -52.5t-54.5 -156.5l-213 -2q0 182 100.5 283.5t358.5 101.5q125 0 215 -22.5t142.5 -59.5t83 -99.5t39.5 -128t9 -157.5v-596h-118l-45 158q-41 -70 -150.5 -121t-261.5 -51 q-178 0 -292 82t-114 239zM289 309q0 -72 60.5 -111.5t174.5 -39.5q143 0 224 78t81 215v32l-297 -32q-135 -14 -189 -47t-54 -95z" />
<glyph unicode="b" horiz-adv-x="1189" d="M106 0v1448h216v-526q92 141 356 141q442 0 442 -539q0 -115 -22.5 -207t-71.5 -168.5t-138 -119.5t-214 -43q-168 0 -266.5 49t-137.5 117l-45 -152h-119zM319 526q0 -180 62.5 -271t232.5 -91q166 0 226.5 91t60.5 269q0 176 -61.5 265.5t-231.5 89.5 q-172 0 -230.5 -89.5t-58.5 -263.5z" />
<glyph unicode="c" horiz-adv-x="1120" d="M66 524q0 113 24.5 204t80.5 169t161.5 122t251.5 44q233 0 352 -114.5t119 -317.5h-224q-12 127 -70.5 190.5t-182.5 63.5q-289 0 -289 -359q0 -166 65.5 -259t227.5 -93q125 0 181 59.5t68 178.5h224q0 -201 -117 -313.5t-350 -112.5q-522 0 -522 538z" />
<glyph unicode="d" horiz-adv-x="1189" d="M66 524q0 539 446 539q264 0 356 -143v528h215v-1448h-118l-50 150q-33 -66 -133 -115t-268 -49q-125 0 -215 43t-139 119.5t-71.5 169t-22.5 206.5zM289 524q0 -176 60.5 -267t225.5 -91q170 0 232.5 90t62.5 268q0 174 -60 264.5t-232 90.5q-168 0 -228.5 -89.5 t-60.5 -265.5z" />
<glyph unicode="e" horiz-adv-x="1136" d="M70 526q0 537 524 537q113 0 200 -34t141 -91t86 -138t41 -170q5 -47 5 -98q0 -45 -4 -94h-766q18 -284 289 -284h2q209 0 250 168h229q-16 -150 -128 -243t-343 -93q-526 0 -526 540zM299 612h539q1 0 1 0.5t-1 1.5q1 1 1 1.5t-1 0.5v7q0 114 -62 191q-64 79 -203 79 q-256 0 -274 -281z" />
<glyph unicode="f" horiz-adv-x="665" d="M2 870v131l150 46v100q0 166 93 238.5t302 72.5q61 0 96 -2v-178q-14 0 -36.5 1t-33.5 1q-123 0 -169 -33t-46 -102v-96h285v-179h-285v-870h-206v870h-150z" />
<glyph unicode="g" horiz-adv-x="1093" d="M35 -72h229q8 -102 66.5 -148t236.5 -46q285 0 285 135q0 31 -17.5 51.5t-63.5 35.5t-81 22.5t-112 19.5q-35 6 -103.5 16.5t-107.5 17.5t-96.5 19t-89 27.5t-65.5 37t-49.5 52.5t-15.5 70q0 121 178 165q-157 79 -157 263q0 88 21.5 152.5t75.5 118.5t158.5 83t258.5 29 h461v-105l-148 -43q51 -27 84 -88t33 -147q0 -88 -20.5 -150.5t-71 -115t-146.5 -78t-237 -25.5l-183 14q-88 -10 -88 -57q0 -33 51.5 -46t225.5 -36q27 -4 41 -6q76 -10 115.5 -16.5t108.5 -20.5t107.5 -33.5t79.5 -48.5t60.5 -71t19.5 -95q0 -137 -117.5 -229t-398.5 -92 q-299 0 -413.5 91t-114.5 277zM295 674q0 -104 52 -158.5t196 -54.5q139 0 192 54.5t53 158.5q0 94 -52 144t-195 50q-139 0 -192.5 -50t-53.5 -144z" />
<glyph unicode="h" horiz-adv-x="1157" d="M106 0v1448h216v-530q78 145 333 145q240 0 326 -123t86 -373v-567h-217v588q0 160 -49 225.5t-207 65.5t-213 -67t-55 -224l-4 -588h-216z" />
<glyph unicode="i" horiz-adv-x="421" d="M51 1300q0 76 41 105t121 29q78 0 117 -29t39 -105q0 -74 -39 -102.5t-117 -28.5q-80 0 -121 29t-41 102zM102 0v1049h217v-1049h-217z" />
<glyph unicode="j" horiz-adv-x="413" d="M-111 -223q66 -8 84 -8q76 0 103.5 32.5t27.5 100.5v1147h218v-1143q0 -164 -71 -243t-231 -79q-49 0 -131 10v183zM55 1300q0 74 41 103t119 29t118 -28t40 -104q0 -74 -41 -103.5t-117 -29.5q-160 0 -160 133z" />
<glyph unicode="k" horiz-adv-x="1067" d="M106 0v1448h220v-811l395 412h305l-534 -496l575 -553h-299l-442 471v-471h-220z" />
<glyph unicode="l" horiz-adv-x="432" d="M106 0v1448h220v-1448h-220z" />
<glyph unicode="m" horiz-adv-x="1646" d="M106 0v1049h119l49 -136q29 61 109 105.5t213 44.5q217 0 289 -162q27 66 108.5 114t216.5 48q104 0 175 -34t107 -98.5t50 -139t14 -175.5v-616h-221v629q0 125 -39 187.5t-155 62.5q-115 0 -157 -62.5t-42 -187.5v-629h-221v629q0 125 -39 187.5t-156 62.5 q-115 0 -157.5 -63.5t-42.5 -186.5v-629h-220z" />
<glyph unicode="n" horiz-adv-x="1159" d="M106 0v1049h119l49 -148q31 66 126.5 114t256.5 48q125 0 209 -35t127 -104.5t59.5 -153.5t16.5 -205v-565h-217v584q0 156 -50 226.5t-206 70.5q-158 0 -214 -72t-56 -225v-584h-220z" />
<glyph unicode="o" d="M66 524q0 111 24.5 202t79.5 170t161.5 123t254 44t253 -44t162 -123t81 -170t24.5 -202q0 -113 -24.5 -204t-82 -169.5t-163 -121.5t-252.5 -43q-518 0 -518 538zM289 524q0 -170 63.5 -265t231.5 -95q170 0 234.5 94t64.5 266q0 168 -63.5 264.5t-233.5 96.5 q-168 0 -232.5 -96.5t-64.5 -264.5z" />
<glyph unicode="p" horiz-adv-x="1187" d="M106 -410v1459h119l45 -150q39 66 136.5 115t267.5 49q125 0 214 -43t138 -121t71.5 -170t22.5 -207q0 -536 -440 -536h-2q-264 0 -356 143v-539h-216zM319 522q0 -176 58.5 -265t230.5 -89q170 0 231.5 89t61.5 265q0 178 -60.5 269.5t-226.5 91.5q-170 0 -232.5 -90.5 t-62.5 -270.5z" />
<glyph unicode="q" horiz-adv-x="1181" d="M63 522q0 115 23 207t73 170t140 121t215 43q166 0 265.5 -49t133.5 -115l48 150h118v-1459h-217v539q-88 -143 -352 -143q-446 0 -447 536zM285 522q0 -176 61.5 -265t228.5 -89q172 0 230.5 89t58.5 265q0 180 -60.5 270.5t-230.5 90.5q-166 0 -227 -91.5t-61 -269.5z " />
<glyph unicode="r" horiz-adv-x="657" d="M106 0v1049h117l51 -146q31 63 115 111.5t223 48.5h35v-195q-10 0 -30.5 2t-28.5 2q-154 0 -208 -73.5t-54 -216.5v-582h-220z" />
<glyph unicode="s" horiz-adv-x="1073" d="M51 391h215q0 -231 287 -231q127 0 186.5 39t63.5 92q2 61 -73 96t-182.5 53.5t-216 44t-184 89t-75.5 167.5q0 147 110.5 234.5t347.5 87.5q461 0 461 -391h-205q-6 111 -65 166t-197 55q-123 0 -179 -38t-56 -95q0 -55 74.5 -86t182 -50.5t215 -47t182.5 -96t75 -177.5 q0 -129 -115 -223t-346 -94q-262 0 -384 101t-122 304z" />
<glyph unicode="t" horiz-adv-x="690" d="M14 872v132l150 45v262h217v-262h274v-177h-268v-571q-1 -81 53 -111q42 -24 153 -24q29 0 62 2v-176q-48 -3 -92 -3q-191 -1 -285 57q-114 70 -114 255v571h-150z" />
<glyph unicode="u" horiz-adv-x="1159" d="M90 473v576h215v-592q0 -154 50.5 -220.5t209.5 -66.5q158 0 213.5 71.5t55.5 225.5v582h221v-1049h-121l-45 152q-35 -68 -130 -117t-255 -49q-127 0 -210 32.5t-127 101t-60.5 150.5t-16.5 203z" />
<glyph unicode="v" horiz-adv-x="1097" d="M-10 1049h239l312 -865l319 865h248l-444 -1049h-250z" />
<glyph unicode="w" horiz-adv-x="1650" d="M20 1049h238l201 -844l248 844h215l260 -850l213 850h235l-315 -1049h-252l-250 821l-246 -821h-239z" />
<glyph unicode="x" horiz-adv-x="1105" d="M-6 0l440 543l-411 506h251l277 -381l280 381h246l-409 -506l440 -543h-264l-291 422l-293 -422h-266z" />
<glyph unicode="y" d="M90 -66h217q4 -47 14.5 -76.5t37 -58t81 -42t138.5 -13.5q160 0 215 62.5t55 175.5v137q-86 -133 -334 -133q-240 0 -326 120.5t-86 368.5v574h215v-592q0 -154 50.5 -220.5t208 -66.5t215 71.5t57.5 225.5v582h217v-1057q0 -86 -19.5 -152.5t-68.5 -130t-150.5 -98.5 t-251.5 -35q-270 0 -377.5 94t-107.5 264z" />
<glyph unicode="z" horiz-adv-x="1013" d="M70 0v186l616 684h-614v179h852v-189l-627 -682h647v-178h-874z" />
<glyph unicode="{" horiz-adv-x="770" d="M59 582v163h220v701h466v-166h-270v-1255h270v-166h-466v723h-220z" />
<glyph unicode="|" horiz-adv-x="432" d="M117 -135v1583h198v-1583h-198z" />
<glyph unicode="}" horiz-adv-x="770" d="M25 25h270v1255h-270v166h467v-701h219v-163h-219v-723h-467v166z" />
<glyph unicode="~" horiz-adv-x="1167" d="M82 567q0 119 70.5 202t226.5 83q80 0 221 -77t197 -77q123 0 123 133h204q2 -35 2 -55q0 -129 -65.5 -197.5t-226.5 -68.5q-82 0 -230.5 77t-191.5 77q-123 0 -123 -134h-205q-2 25 -2 37z" />
<glyph unicode="&#xa1;" horiz-adv-x="393" d="M41 1194q0 74 40 102.5t117.5 28.5t118.5 -28.5t41 -102.5q0 -76 -41 -104.5t-118.5 -28.5t-117.5 28.5t-40 104.5zM100 0v537l31 426h133l33 -426v-537h-197z" />
<glyph unicode="&#xa2;" horiz-adv-x="1120" d="M66 522q0 489 428 533v250h196v-250q180 -27 272.5 -138.5t92.5 -287.5h-224q-10 127 -69.5 189.5t-183.5 62.5q-289 0 -289 -357q0 -166 65.5 -259t227.5 -93q125 0 181 59.5t68 178.5h224q0 -178 -91.5 -287t-273.5 -131v-260h-196v258q-428 49 -428 532z" />
<glyph unicode="&#xa3;" horiz-adv-x="1185" d="M55 0v184q104 0 144.5 76t40.5 221v86h-179v183h179v153q0 422 436 422q248 0 339 -106.5t91 -325.5h-213q0 135 -47 188.5t-170 53.5q-115 0 -164 -55.5t-49 -176.5v-153h559v-183h-559v-86q0 -96 -24.5 -169.5t-49.5 -100.5l-22 -27h739v-184h-1051z" />
<glyph unicode="&#xa5;" horiz-adv-x="1243" d="M-2 1311h238l380 -717l396 717h235l-424 -729h357v-181h-451v-401h-235v401h-435v181h342z" />
<glyph unicode="&#xa6;" horiz-adv-x="432" d="M117 -135v682h198v-682h-198zM117 780v668h198v-668h-198z" />
<glyph unicode="&#xa7;" horiz-adv-x="1046" d="M25 580q0 147 149 231q-109 70 -108 193q0 147 111.5 234t346.5 87q461 0 461 -389h-205q-6 109 -65.5 163t-194.5 54q-236 0 -235 -133q0 -47 54 -78t135 -45t175 -37.5t175 -53.5t135.5 -94.5t54.5 -156.5q0 -150 -152 -231q111 -68 111 -191q0 -147 -111.5 -235 t-347.5 -88q-461 0 -461 389h205q6 -109 65.5 -163t196.5 -54q123 0 179.5 37.5t56.5 95.5q0 47 -54.5 77.5t-135.5 45t-176 39t-176 54t-135 93t-54 156.5zM240 580q0 -37 23.5 -62.5t73.5 -43t95 -29t122 -25.5t122 -25q63 25 93 71t30 89q0 37 -23.5 62.5t-74 43 t-96.5 28.5t-122.5 25.5t-122.5 24.5q-61 -27 -90.5 -72.5t-29.5 -86.5z" />
<glyph unicode="&#xa8;" horiz-adv-x="1069" d="M186 1274q0 70 35 94.5t111 24.5q72 0 106.5 -24.5t34.5 -94.5q0 -68 -35 -93.5t-106 -25.5q-74 0 -110 25.5t-36 93.5zM598 1274q0 70 36 94.5t111 24.5q72 0 106 -24.5t34 -94.5q0 -68 -35 -93.5t-105 -25.5q-76 0 -111.5 25.5t-35.5 93.5z" />
<glyph unicode="&#xa9;" horiz-adv-x="1865" d="M92 657q0 840 840 840q242 0 410.5 -65.5t260 -185.5t130.5 -263.5t39 -327.5q0 -145 -23 -265t-82 -229.5t-151.5 -184t-241 -118.5t-343 -44t-342 44t-240.5 118.5t-151.5 184t-82 230.5t-23.5 266zM295 655q0 -152 29.5 -266.5t100.5 -208.5t198 -143t309 -49t310 49 t197.5 143t99.5 209t30 266.5t-30 266t-99.5 209t-197.5 143.5t-310 49q-180 0 -308 -50t-198 -143.5t-100.5 -209t-30.5 -265.5zM514 647q0 207 99.5 333t322.5 126q190 0 289.5 -100.5t99.5 -280.5h-188q-8 111 -57.5 160t-145.5 49q-229 0 -229 -281q0 -285 229 -284 q96 0 145 48t58 154h188q0 -182 -96 -279t-287 -97q-227 0 -327.5 124.5t-100.5 327.5z" />
<glyph unicode="&#xaa;" horiz-adv-x="1128" d="M63 569q0 143 100.5 212t336.5 96l329 38q-4 121 -63 178.5t-209 57.5q-139 0 -193.5 -52t-54.5 -157h-213q0 180 100.5 281.5t358.5 101.5q156 0 256 -31.5t149.5 -98.5t66.5 -142.5t17 -192.5v-600h-118l-45 160q-41 -70 -148.5 -120t-259.5 -50q-180 0 -295 81 t-115 238zM289 573q0 -154 235 -153q143 0 224 77t81 216v30l-297 -32q-137 -14 -190 -45t-53 -93z" />
<glyph unicode="&#xab;" horiz-adv-x="970" d="M53 522l215 439h217l-211 -439l211 -436h-217zM485 522l213 439h217l-210 -439l210 -436h-217z" />
<glyph unicode="&#xad;" horiz-adv-x="765" d="M82 438v180h602v-180h-602z" />
<glyph unicode="&#xae;" horiz-adv-x="1865" d="M92 657q0 143 23.5 263t82 230t151.5 184.5t241.5 118.5t341.5 44q242 0 410.5 -65.5t260 -185.5t130.5 -263.5t39 -327.5q0 -145 -23 -265t-82 -229.5t-151.5 -184t-241 -118.5t-343 -44t-342 44t-240.5 118.5t-151.5 184t-82 230.5t-23.5 266zM295 655 q0 -152 29.5 -266.5t100.5 -208.5t198 -143t309 -49t310 49t197.5 143t99.5 209t30 266.5t-30 266t-99.5 209t-197.5 143.5t-310 49q-180 0 -308 -50t-198 -143.5t-100.5 -209t-30.5 -265.5zM586 219v864h338q125 0 207.5 -25.5t119.5 -71.5t50.5 -88t13.5 -95 q0 -246 -289 -246h-76l379 -338h-262l-295 313v-313h-186zM772 676h162q63 0 105 11t59.5 32.5t22.5 40t5 43.5q0 131 -194 131h-160v-258z" />
<glyph unicode="&#xaf;" horiz-adv-x="1069" d="M86 1182v180h899v-180h-899z" />
<glyph unicode="&#xb0;" horiz-adv-x="1058" d="M66 854q0 102 18 178t65.5 146.5t143.5 108.5t237.5 38t237.5 -38t143 -108.5t65.5 -146.5t18.5 -178t-18.5 -179t-66.5 -147.5t-144 -107.5t-240 -37q-141 0 -236 37t-142.5 107.5t-64.5 147.5t-17 179zM260 854q0 -137 57.5 -213t208.5 -76q158 0 216.5 75t58.5 214 q0 137 -56.5 212t-214.5 75q-154 0 -212 -76t-58 -211z" />
<glyph unicode="&#xb4;" horiz-adv-x="1128" d="M123 1128v183l883 143v-182z" />
<glyph unicode="&#xb6;" horiz-adv-x="798" d="M66 1062.5q0 106.5 66.5 177.5t184.5 71h347v-1311h-226l2 817h-121q-123 0 -188 69.5t-65 176z" />
<glyph unicode="&#xb7;" horiz-adv-x="419" d="M53 657q0 76 38 103.5t118 27.5q78 0 115.5 -27.5t37.5 -103.5q0 -72 -37.5 -99.5t-115.5 -27.5t-117 28t-39 99z" />
<glyph unicode="&#xb8;" horiz-adv-x="1146" d="M104 -141h308q125 0 125 141h198q0 -180 -75.5 -248.5t-219.5 -68.5h-336v176z" />
<glyph unicode="&#xba;" horiz-adv-x="1169" d="M66 791q0 535 520 534q119 0 210 -29.5t149.5 -79t95 -119t51 -144t14.5 -162.5q0 -539 -522 -539q-518 0 -518 539zM289 791q0 -170 63.5 -264.5t231.5 -94.5q170 0 234.5 93.5t64.5 265.5q0 80 -12.5 139t-43 110.5t-91 79t-150.5 27.5q-170 0 -233.5 -94.5 t-63.5 -261.5z" />
<glyph unicode="&#xbb;" horiz-adv-x="970" d="M53 86l213 436l-213 439h221l211 -439l-211 -436h-221zM485 86l211 436l-211 439h220l210 -439l-210 -436h-220z" />
<glyph unicode="&#xbf;" horiz-adv-x="1150" d="M133 412q0 113 45 196.5t116 126.5t141.5 63.5t137.5 20.5h39l33 139h186v-307h-163q-313 -6 -314 -239q0 -104 63.5 -170t196.5 -66q287 0 287 270h217q0 -211 -119.5 -335.5t-375.5 -124.5q-248 0 -369 118t-121 308zM580 1192q0 76 39.5 104.5t115.5 28.5 q78 0 120 -28.5t42 -104.5q0 -74 -41 -101.5t-121 -27.5q-78 0 -116.5 27.5t-38.5 101.5z" />
<glyph unicode="&#xc0;" horiz-adv-x="1292" d="M-2 0l504 1311h305l491 -1311h-239l-88 256h-643l-95 -256h-235zM209 1528v178l881 -137v-183zM383 420h530l-264 745z" />
<glyph unicode="&#xc1;" horiz-adv-x="1292" d="M-2 0l504 1311h305l491 -1311h-239l-88 256h-643l-95 -256h-235zM205 1389v182l882 143v-182zM383 420h530l-264 745z" />
<glyph unicode="&#xc2;" horiz-adv-x="1292" d="M-2 0l504 1311h305l491 -1311h-239l-88 256h-643l-95 -256h-235zM207 1384v181l442 172l443 -172v-181l-443 170zM383 420h530l-264 745z" />
<glyph unicode="&#xc3;" horiz-adv-x="1292" d="M-2 0l504 1311h305l491 -1311h-239l-88 256h-643l-95 -256h-235zM164 1456q0 268 268 268q96 0 228.5 -71.5t195.5 -71.5q76 0 97.5 29.5t21.5 97.5h164q4 -27 4 -47q0 -127 -55.5 -193.5t-208.5 -66.5q-100 0 -240.5 73.5t-187.5 73.5q-66 0 -91.5 -31.5t-29.5 -99.5 h-164q-2 25 -2 39zM383 420h530l-264 745z" />
<glyph unicode="&#xc4;" horiz-adv-x="1292" d="M-2 0l504 1311h305l491 -1311h-239l-88 256h-643l-95 -256h-235zM309 1534q0 70 35 94.5t111 24.5q72 0 106.5 -24.5t34.5 -94.5q0 -68 -35 -93.5t-106 -25.5q-74 0 -110 25.5t-36 93.5zM383 420h530l-264 745zM721 1534q0 70 36 94.5t111 24.5q72 0 106 -24.5t34 -94.5 q0 -68 -35 -93.5t-105 -25.5q-76 0 -111.5 25.5t-35.5 93.5z" />
<glyph unicode="&#xc5;" horiz-adv-x="1292" d="M-2 0l504 1311h305l491 -1311h-239l-88 256h-643l-95 -256h-235zM344 1630q0 127 67.5 181.5t239.5 54.5q168 0 236.5 -54.5t68.5 -181.5t-69.5 -183t-235.5 -56q-172 0 -239.5 55t-67.5 184zM383 420h530l-264 745zM510 1630q0 -55 32.5 -72.5t108.5 -17.5 q72 0 106 18.5t34 71.5t-33 69.5t-107 16.5q-76 0 -108.5 -16.5t-32.5 -69.5z" />
<glyph unicode="&#xc6;" horiz-adv-x="1996" d="M-16 0l897 1311h1038v-187h-686v-364h625v-182h-625v-392h686v-186h-911v256h-607l-178 -256h-239zM512 420h496v710z" />
<glyph unicode="&#xc7;" horiz-adv-x="1366" d="M92 655q0 115 15.5 208t57.5 181.5t108.5 148.5t174 96t248.5 36q303 0 447.5 -145.5t144.5 -368.5h-231q-23 328 -361 328q-113 0 -188.5 -37t-115.5 -106.5t-55 -150.5t-15 -189.5t15 -189.5t55 -150.5t116 -106.5t188 -37q340 0 361 332h231q0 -215 -117.5 -353.5 t-373.5 -160.5q-4 -168 -80 -232.5t-215 -64.5h-269v176h240q117 0 123 123q-147 14 -249.5 71.5t-156 151.5t-76 199.5t-22.5 240.5z" />
<glyph unicode="&#xc8;" horiz-adv-x="1120" d="M135 0v1311h912v-185h-689v-366h625v-182h-625v-394h689v-184h-912zM150 1530v178l880 -137v-182z" />
<glyph unicode="&#xc9;" horiz-adv-x="1120" d="M135 0v1311h912v-185h-689v-366h625v-182h-625v-394h689v-184h-912zM156 1391v182l882 143v-182z" />
<glyph unicode="&#xca;" horiz-adv-x="1120" d="M135 0v1311h912v-185h-689v-366h625v-182h-625v-394h689v-184h-912zM145 1386v181l443 172l442 -172v-181l-442 170z" />
<glyph unicode="&#xcb;" horiz-adv-x="1120" d="M135 0v1311h912v-185h-689v-366h625v-182h-625v-394h689v-184h-912zM236 1536q0 70 34.5 94.5t110.5 24.5q72 0 106.5 -24.5t34.5 -94.5q0 -68 -34.5 -93.5t-106.5 -25.5q-74 0 -109.5 25.5t-35.5 93.5zM647 1536q0 70 36 94.5t112 24.5q72 0 105.5 -24.5t33.5 -94.5 q0 -68 -35 -93.5t-104 -25.5q-76 0 -112 25.5t-36 93.5z" />
<glyph unicode="&#xcc;" horiz-adv-x="493" d="M70 1507v183l358 -109v-180zM135 0v1311h225v-1311h-225z" />
<glyph unicode="&#xcd;" horiz-adv-x="493" d="M70 1401v180l358 109v-183zM135 0v1311h225v-1311h-225z" />
<glyph unicode="&#xce;" horiz-adv-x="491" d="M18 1393v198l228 140l225 -140v-198l-225 141zM135 0v1311h225v-1311h-225z" />
<glyph unicode="&#xcf;" horiz-adv-x="491" d="M-102 1540q0 70 34.5 94.5t110.5 24.5q72 0 106.5 -24.5t34.5 -94.5q0 -68 -34.5 -93.5t-106.5 -25.5q-74 0 -109.5 26t-35.5 93zM135 0v1311h225v-1311h-225zM309 1540q0 70 36 94.5t112 24.5q72 0 105.5 -24.5t33.5 -94.5q0 -68 -35 -93.5t-104 -25.5q-76 0 -112 26 t-36 93z" />
<glyph unicode="&#xd0;" horiz-adv-x="1366" d="M51 575v181h137v555h502q293 0 440.5 -165t147.5 -482q0 -315 -156.5 -489.5t-453.5 -174.5h-480v575h-137zM414 184h213q225 0 327.5 111t102.5 371t-97.5 360t-320.5 100h-225v-370h262v-181h-262v-391z" />
<glyph unicode="&#xd1;" horiz-adv-x="1466" d="M141 0v1311h289l676 -1016v1016h225v-1311h-278l-686 1024v-1024h-226zM256 1487q0 268 268 268q96 0 228.5 -71.5t195.5 -71.5q76 0 97.5 29.5t21.5 97.5h164q4 -27 4 -47q0 -127 -55.5 -193.5t-208.5 -66.5q-100 0 -240.5 73.5t-187.5 73.5q-66 0 -91.5 -31.5 t-29.5 -99.5h-164q-2 25 -2 39z" />
<glyph unicode="&#xd2;" horiz-adv-x="1433" d="M92 657.5q0 145.5 29 258t95.5 209t192.5 148.5t308 52t309 -52t193.5 -149.5t94 -210.5t27.5 -260q0 -143 -27.5 -254.5t-94 -210t-193.5 -150.5t-309 -52t-309 53t-194 150.5t-94.5 210t-27.5 258zM279 1538v178l880 -137v-182zM322 657q0 -229 85 -357t310 -128 q227 0 312 127t85 354q0 111 -16.5 193t-58.5 151.5t-122.5 105.5t-199.5 36t-199 -36t-122 -105.5t-58 -150.5t-16 -190z" />
<glyph unicode="&#xd3;" horiz-adv-x="1433" d="M92 657.5q0 145.5 29 258t95.5 209t192.5 148.5t308 52t309 -52t193.5 -149.5t94 -210.5t27.5 -260q0 -143 -27.5 -254.5t-94 -210t-193.5 -150.5t-309 -52t-309 53t-194 150.5t-94.5 210t-27.5 258zM270 1397v182l883 143v-182zM322 657q0 -229 85 -357t310 -128 q227 0 312 127t85 354q0 111 -16.5 193t-58.5 151.5t-122.5 105.5t-199.5 36t-199 -36t-122 -105.5t-58 -150.5t-16 -190z" />
<glyph unicode="&#xd4;" horiz-adv-x="1433" d="M92 657.5q0 145.5 29 258t95.5 209t192.5 148.5t308 52t309 -52t193.5 -149.5t94 -210.5t27.5 -260q0 -143 -27.5 -254.5t-94 -210t-193.5 -150.5t-309 -52t-309 53t-194 150.5t-94.5 210t-27.5 258zM285 1399v180l442 172l442 -172v-180l-442 170zM322 657 q0 -229 85 -357t310 -128q227 0 312 127t85 354q0 111 -16.5 193t-58.5 151.5t-122.5 105.5t-199.5 36t-199 -36t-122 -105.5t-58 -150.5t-16 -190z" />
<glyph unicode="&#xd5;" horiz-adv-x="1433" d="M92 657.5q0 145.5 29 258t95.5 209t192.5 148.5t308 52t309 -52t193.5 -149.5t94 -210.5t27.5 -260q0 -143 -27.5 -254.5t-94 -210t-193.5 -150.5t-309 -52t-309 53t-194 150.5t-94.5 210t-27.5 258zM240 1475q0 268 268 268q96 0 228 -72t196 -72q76 0 97.5 30t21.5 97 h163q5 -27 5 -47q0 -127 -55.5 -193.5t-209.5 -66.5q-100 0 -240.5 74t-187.5 74q-66 0 -91 -32t-29 -99h-164q-2 25 -2 39zM322 657q0 -229 85 -357t310 -128q227 0 312 127t85 354q0 111 -16.5 193t-58.5 151.5t-122.5 105.5t-199.5 36t-199 -36t-122 -105.5t-58 -150.5 t-16 -190z" />
<glyph unicode="&#xd6;" horiz-adv-x="1433" d="M92 657.5q0 145.5 29 258t95.5 209t192.5 148.5t308 52t309 -52t193.5 -149.5t94 -210.5t27.5 -260q0 -143 -27.5 -254.5t-94 -210t-193.5 -150.5t-309 -52t-309 53t-194 150.5t-94.5 210t-27.5 258zM322 657q0 -229 85 -357t310 -128q227 0 312 127t85 354 q0 111 -16.5 193t-58.5 151.5t-122.5 105.5t-199.5 36t-199 -36t-122 -105.5t-58 -150.5t-16 -190zM373 1544q0 70 34.5 94.5t110.5 24.5q72 0 106.5 -24.5t34.5 -94.5q0 -68 -34.5 -93.5t-106.5 -25.5q-74 0 -109.5 26t-35.5 93zM784 1544q0 70 36 94.5t112 24.5 q72 0 105.5 -24.5t33.5 -94.5q0 -68 -35 -93.5t-104 -25.5q-76 0 -112 26t-36 93z" />
<glyph unicode="&#xd7;" horiz-adv-x="1105" d="M-6 0l440 543l-411 506h251l277 -381l280 381h246l-409 -506l440 -543h-264l-291 422l-293 -422h-266z" />
<glyph unicode="&#xd8;" horiz-adv-x="1435" d="M92 657q0 145 29 258t95.5 209.5t192.5 148.5t308 52q82 0 151 -12l54 141h206l-75 -194q289 -141 288 -607q0 -143 -27.5 -254.5t-94 -210t-193.5 -150.5t-309 -52q-74 0 -150 10l-53 -139h-209l76 194q-289 141 -289 606zM322 657q0 -301 135 -409l342 885q-41 6 -82 6 q-119 0 -199 -36t-122 -105.5t-58 -150.5t-16 -190zM637 176q49 -4 80 -4q227 0 312 127t85 354q0 303 -137 410z" />
<glyph unicode="&#xd9;" horiz-adv-x="1339" d="M113 588v723h227v-713q0 -217 69.5 -315.5t260.5 -98.5q193 0 262 98.5t69 315.5v713h228v-723q0 -322 -130 -462t-429 -140t-428 140t-129 462zM229 1556v179l881 -138v-182z" />
<glyph unicode="&#xda;" horiz-adv-x="1339" d="M113 588v723h227v-713q0 -217 69.5 -315.5t260.5 -98.5q193 0 262 98.5t69 315.5v713h228v-723q0 -322 -130 -462t-429 -140t-428 140t-129 462zM217 1405v182l883 144v-183z" />
<glyph unicode="&#xdb;" horiz-adv-x="1339" d="M113 588v723h227v-713q0 -217 69.5 -315.5t260.5 -98.5q193 0 262 98.5t69 315.5v713h228v-723q0 -322 -130 -462t-429 -140t-428 140t-129 462zM225 1399v180l443 172l442 -172v-180l-442 170z" />
<glyph unicode="&#xdc;" horiz-adv-x="1339" d="M113 588v723h227v-713q0 -217 69.5 -315.5t260.5 -98.5q193 0 262 98.5t69 315.5v713h228v-723q0 -322 -130 -462t-429 -140t-428 140t-129 462zM324 1544q0 70 34.5 94.5t110.5 24.5q72 0 106.5 -24.5t34.5 -94.5q0 -68 -34.5 -93.5t-106.5 -25.5q-74 0 -109.5 26 t-35.5 93zM735 1544q0 70 36 94.5t112 24.5q72 0 105.5 -24.5t33.5 -94.5q0 -68 -35 -93.5t-104 -25.5q-76 0 -112 26t-36 93z" />
<glyph unicode="&#xdd;" horiz-adv-x="1243" d="M-2 1311h238l378 -740l398 740h235l-518 -914v-397h-235v397zM178 1403v182l883 144v-183z" />
<glyph unicode="&#xde;" horiz-adv-x="1239" d="M135 0v1311h225v-213h248q143 0 249 -29t161 -68.5t88 -102t41 -113t8 -116t-6 -112.5t-36 -108.5t-83 -99.5t-156.5 -65.5t-248.5 -27.5h-265v-256h-225zM360 434h263q96 0 160.5 20.5t93 58.5t38 73t9.5 84t-10.5 86t-39 75.5t-94 60t-164.5 21.5h-256v-479z" />
<glyph unicode="&#xdf;" horiz-adv-x="1507" d="M23 879v125l145 45q2 242 102.5 328.5t356.5 86.5q272 0 390 -80.5t118 -257.5v-243q-12 0 -49 1t-60 1q-279 0 -278 -123q0 -45 54 -75t135 -43t175 -36.5t175 -52.5t135.5 -93.5t54.5 -156.5q0 -131 -116 -225t-345 -94q-262 0 -384 104.5t-122 310.5h215 q0 -229 287 -229q246 0 250 119q2 53 -51.5 88t-134.5 50t-177 37.5t-178 49.5t-136.5 86.5t-54.5 147.5q0 145 103.5 226t286.5 79v41q0 94 -54.5 130t-220.5 36q-147 0 -201.5 -39t-54.5 -158v-1065h-221v879h-145z" />
<glyph unicode="&#xe0;" horiz-adv-x="1124" d="M63 307q0 143 104.5 215t332.5 94l329 33q-4 123 -63 181.5t-209 58.5q-139 0 -193.5 -52.5t-54.5 -156.5l-213 -2q0 182 100.5 283.5t358.5 101.5q125 0 215 -22.5t142.5 -59.5t83 -99.5t39.5 -128t9 -157.5v-596h-118l-45 158q-41 -70 -150.5 -121t-261.5 -51 q-178 0 -292 82t-114 239zM123 1268v178l881 -137v-183zM289 309q0 -72 60.5 -111.5t174.5 -39.5q143 0 224 78t81 215v32l-297 -32q-135 -14 -189 -47t-54 -95z" />
<glyph unicode="&#xe1;" horiz-adv-x="1124" d="M63 307q0 143 104.5 215t332.5 94l329 33q-4 123 -63 181.5t-209 58.5q-139 0 -193.5 -52.5t-54.5 -156.5l-213 -2q0 182 100.5 283.5t358.5 101.5q125 0 215 -22.5t142.5 -59.5t83 -99.5t39.5 -128t9 -157.5v-596h-118l-45 158q-41 -70 -150.5 -121t-261.5 -51 q-178 0 -292 82t-114 239zM121 1128v183l883 143v-182zM289 309q0 -72 60.5 -111.5t174.5 -39.5q143 0 224 78t81 215v32l-297 -32q-135 -14 -189 -47t-54 -95z" />
<glyph unicode="&#xe2;" horiz-adv-x="1124" d="M63 307q0 143 104.5 215t332.5 94l329 33q-4 123 -63 181.5t-209 58.5q-139 0 -193.5 -52.5t-54.5 -156.5l-213 -2q0 182 100.5 283.5t358.5 101.5q125 0 215 -22.5t142.5 -59.5t83 -99.5t39.5 -128t9 -157.5v-596h-118l-45 158q-41 -70 -150.5 -121t-261.5 -51 q-178 0 -292 82t-114 239zM121 1124v181l442 172l443 -172v-181l-443 170zM289 309q0 -72 60.5 -111.5t174.5 -39.5q143 0 224 78t81 215v32l-297 -32q-135 -14 -189 -47t-54 -95z" />
<glyph unicode="&#xe3;" horiz-adv-x="1124" d="M63 307q0 143 104.5 215t332.5 94l329 33q-4 123 -63 181.5t-209 58.5q-139 0 -193.5 -52.5t-54.5 -156.5l-213 -2q0 182 100.5 283.5t358.5 101.5q125 0 215 -22.5t142.5 -59.5t83 -99.5t39.5 -128t9 -157.5v-596h-118l-45 158q-41 -70 -150.5 -121t-261.5 -51 q-178 0 -292 82t-114 239zM74 1206q0 268 268 269q96 0 228 -72t196 -72q76 0 97.5 30t21.5 97h164q4 -27 4 -47q0 -127 -55.5 -193.5t-209.5 -66.5q-100 0 -240 73.5t-188 73.5q-66 0 -91 -31.5t-29 -99.5h-164q-2 25 -2 39zM289 309q0 -72 60.5 -111.5t174.5 -39.5 q143 0 224 78t81 215v32l-297 -32q-135 -14 -189 -47t-54 -95z" />
<glyph unicode="&#xe4;" horiz-adv-x="1124" d="M63 307q0 143 104.5 215t332.5 94l329 33q-4 123 -63 181.5t-209 58.5q-139 0 -193.5 -52.5t-54.5 -156.5l-213 -2q0 182 100.5 283.5t358.5 101.5q125 0 215 -22.5t142.5 -59.5t83 -99.5t39.5 -128t9 -157.5v-596h-118l-45 158q-41 -70 -150.5 -121t-261.5 -51 q-178 0 -292 82t-114 239zM215 1274q0 70 35 94.5t110 24.5q72 0 107 -24.5t35 -94.5q0 -68 -35 -93.5t-107 -25.5q-74 0 -109.5 25.5t-35.5 93.5zM289 309q0 -72 60.5 -111.5t174.5 -39.5q143 0 224 78t81 215v32l-297 -32q-135 -14 -189 -47t-54 -95zM627 1274 q0 70 35.5 94.5t111.5 24.5q72 0 105.5 -24.5t33.5 -94.5q0 -68 -34.5 -93.5t-104.5 -25.5q-76 0 -111.5 25.5t-35.5 93.5z" />
<glyph unicode="&#xe5;" horiz-adv-x="1124" d="M63 307q0 143 104.5 215t332.5 94l329 33q-4 123 -63 181.5t-209 58.5q-139 0 -193.5 -52.5t-54.5 -156.5l-213 -2q0 182 100.5 283.5t358.5 101.5q125 0 215 -22.5t142.5 -59.5t83 -99.5t39.5 -128t9 -157.5v-596h-118l-45 158q-41 -70 -150.5 -121t-261.5 -51 q-178 0 -292 82t-114 239zM256 1370q0 127 67.5 181.5t239.5 54.5q168 0 236.5 -54.5t68.5 -181.5t-69.5 -183.5t-235.5 -56.5q-172 0 -239.5 55.5t-67.5 184.5zM289 309q0 -72 60.5 -111.5t174.5 -39.5q143 0 224 78t81 215v32l-297 -32q-135 -14 -189 -47t-54 -95z M422 1370q0 -55 32.5 -72.5t108.5 -17.5q72 0 105.5 18.5t33.5 71.5t-32.5 69.5t-106.5 16.5q-76 0 -108.5 -16.5t-32.5 -69.5z" />
<glyph unicode="&#xe6;" horiz-adv-x="1886" d="M63 307q0 143 101.5 213t335.5 96l329 29q-4 123 -63 183.5t-209 60.5q-139 0 -193.5 -52.5t-54.5 -156.5h-213q0 182 100.5 282.5t358.5 100.5q276 0 397 -145q125 145 391 145q246 0 360 -144.5t114 -381.5q0 -33 -5 -95h-765q18 -279 292 -278q207 0 248 164h230 q-14 -150 -127 -245t-344 -95q-311 0 -433 205q-68 -115 -168 -160t-272 -45q-180 0 -295 81t-115 238zM289 309q0 -74 60.5 -113.5t174.5 -39.5q143 0 224 79t81 216v32l-297 -32q-135 -14 -189 -47t-54 -95zM1049 616h538v7q0 121 -61.5 196.5t-202.5 75.5 q-256 0 -274 -279z" />
<glyph unicode="&#xe7;" horiz-adv-x="1120" d="M66 522q0 113 24.5 204t80.5 170t161.5 123t251.5 44q233 0 352 -116t119 -318h-224q-12 127 -70.5 191.5t-182.5 64.5q-289 0 -289 -361q0 -166 65.5 -259t227.5 -93q125 0 181 59.5t68 178.5h224q0 -176 -90.5 -285t-270.5 -133q-2 -170 -77.5 -234.5t-217.5 -64.5 h-235v176h209q117 0 123 121q-430 45 -430 532z" />
<glyph unicode="&#xe8;" horiz-adv-x="1136" d="M70 526q0 537 524 537q113 0 200 -34t141 -91t86 -138t41 -170t1 -192h-766q18 -285 291 -284q209 0 250 168h229q-16 -150 -128 -243t-343 -93q-526 0 -526 540zM143 1268v178l881 -137v-183zM299 612h539q2 0 0 2q2 2 0 2q2 119 -61.5 198t-203.5 79q-256 0 -274 -281z " />
<glyph unicode="&#xe9;" horiz-adv-x="1136" d="M70 526q0 537 524 537q113 0 200 -34t141 -91t86 -138t41 -170t1 -192h-766q18 -285 291 -284q209 0 250 168h229q-16 -150 -128 -243t-343 -93q-526 0 -526 540zM139 1128v183l883 143v-182zM299 612h539q2 0 0 2q2 2 0 2q2 119 -61.5 198t-203.5 79q-256 0 -274 -281z " />
<glyph unicode="&#xea;" horiz-adv-x="1136" d="M70 526q0 537 524 537q113 0 200 -34t141 -91t86 -138t41 -170t1 -192h-766q18 -285 291 -284q209 0 250 168h229q-16 -150 -128 -243t-343 -93q-526 0 -526 540zM137 1124v181l443 172l442 -172v-181l-442 170zM299 612h539q2 0 0 2q2 2 0 2q2 119 -61.5 198t-203.5 79 q-256 0 -274 -281z" />
<glyph unicode="&#xeb;" horiz-adv-x="1136" d="M70 526q0 537 524 537q113 0 200 -34t141 -91t86 -138t41 -170t1 -192h-766q18 -285 291 -284q209 0 250 168h229q-16 -150 -128 -243t-343 -93q-526 0 -526 540zM238 1274q0 70 34.5 94.5t110.5 24.5q72 0 106.5 -24.5t34.5 -94.5q0 -68 -34.5 -93.5t-106.5 -25.5 q-74 0 -109.5 25.5t-35.5 93.5zM299 612h539q2 0 0 2q2 2 0 2q2 119 -61.5 198t-203.5 79q-256 0 -274 -281zM649 1274q0 70 36 94.5t112 24.5q72 0 105.5 -24.5t33.5 -94.5q0 -68 -35 -93.5t-104 -25.5q-76 0 -112 25.5t-36 93.5z" />
<glyph unicode="&#xec;" horiz-adv-x="421" d="M39 1241v182l358 -100v-182zM104 0v1049h218v-1049h-218z" />
<glyph unicode="&#xed;" horiz-adv-x="421" d="M39 1141v182l358 100v-182zM104 0v1049h218v-1049h-218z" />
<glyph unicode="&#xee;" horiz-adv-x="421" d="M-18 1137v198l227 140l225 -140v-198l-225 141zM104 0v1049h218v-1049h-218z" />
<glyph unicode="&#xef;" horiz-adv-x="421" d="M-133 1274q0 70 35 94.5t110 24.5q72 0 107 -24.5t35 -94.5q0 -68 -35 -93.5t-107 -25.5q-74 0 -109.5 25.5t-35.5 93.5zM104 0v1049h218v-1049h-218zM279 1274q0 70 35.5 94.5t111.5 24.5q72 0 105.5 -24.5t33.5 -94.5q0 -68 -34.5 -93.5t-104.5 -25.5 q-76 0 -111.5 25.5t-35.5 93.5z" />
<glyph unicode="&#xf0;" horiz-adv-x="1155" d="M53 524q0 106 22.5 196.5t74 170.5t148.5 126t230 46q219 0 314 -152q-35 156 -113 295l-227 -63v139l151 43q-30 41 -100 123h258q43 -59 47 -66l217 62v-139l-141 -41q156 -285 156 -699q0 -580 -525 -579q-147 0 -251.5 46t-159 126t-78 169t-23.5 197zM274 524 q0 -172 68 -266t227 -94q162 0 230.5 93t68.5 267q0 172 -66.5 265.5t-228 93.5t-230.5 -93.5t-69 -265.5z" />
<glyph unicode="&#xf1;" horiz-adv-x="1159" d="M92 1196q0 268 268 268q96 0 228.5 -71.5t195.5 -71.5q76 0 97.5 29.5t21.5 97.5h164q4 -27 4 -47q0 -127 -55 -193.5t-209 -66.5q-100 0 -240.5 73.5t-187.5 73.5q-66 0 -91.5 -31.5t-29.5 -99.5h-164q-2 25 -2 39zM106 0v1049h119l49 -148q31 66 126.5 114t256.5 48 q125 0 209 -35t127 -104.5t59.5 -153.5t16.5 -205v-565h-217v584q0 156 -50 226.5t-206 70.5q-158 0 -214 -72t-56 -225v-584h-220z" />
<glyph unicode="&#xf2;" d="M66 524q0 111 24.5 202t79.5 170t161.5 123t254 44t253 -44t162 -123t81 -170t24.5 -202q0 -113 -24.5 -204t-82 -169.5t-163 -121.5t-252.5 -43q-518 0 -518 538zM145 1268v178l881 -137v-183zM289 524q0 -170 63.5 -265t231.5 -95q170 0 234.5 94t64.5 266 q0 168 -63.5 264.5t-233.5 96.5q-168 0 -232.5 -96.5t-64.5 -264.5z" />
<glyph unicode="&#xf3;" d="M66 524q0 111 24.5 202t79.5 170t161.5 123t254 44t253 -44t162 -123t81 -170t24.5 -202q0 -113 -24.5 -204t-82 -169.5t-163 -121.5t-252.5 -43q-518 0 -518 538zM143 1128v183l883 143v-182zM289 524q0 -170 63.5 -265t231.5 -95q170 0 234.5 94t64.5 266 q0 168 -63.5 264.5t-233.5 96.5q-168 0 -232.5 -96.5t-64.5 -264.5z" />
<glyph unicode="&#xf4;" d="M66 524q0 111 24.5 202t79.5 170t161.5 123t254 44t253 -44t162 -123t81 -170t24.5 -202q0 -113 -24.5 -204t-82 -169.5t-163 -121.5t-252.5 -43q-518 0 -518 538zM143 1124v181l443 172l442 -172v-181l-442 170zM289 524q0 -170 63.5 -265t231.5 -95q170 0 234.5 94 t64.5 266q0 168 -63.5 264.5t-233.5 96.5q-168 0 -232.5 -96.5t-64.5 -264.5z" />
<glyph unicode="&#xf5;" d="M66 524q0 111 24.5 202t79.5 170t161.5 123t254 44t253 -44t162 -123t81 -170t24.5 -202q0 -113 -24.5 -204t-82 -169.5t-163 -121.5t-252.5 -43q-518 0 -518 538zM96 1196q0 268 269 268q96 0 228 -71.5t195 -71.5q76 0 97.5 29.5t21.5 97.5h164q4 -27 4 -47 q0 -127 -55 -193.5t-209 -66.5q-100 0 -240.5 73.5t-187.5 73.5q-66 0 -91.5 -31.5t-29.5 -99.5h-164q-2 25 -2 39zM289 524q0 -170 63.5 -265t231.5 -95q170 0 234.5 94t64.5 266q0 168 -63.5 264.5t-233.5 96.5q-168 0 -232.5 -96.5t-64.5 -264.5z" />
<glyph unicode="&#xf6;" d="M66 524q0 111 24.5 202t79.5 170t161.5 123t254 44t253 -44t162 -123t81 -170t24.5 -202q0 -113 -24.5 -204t-82 -169.5t-163 -121.5t-252.5 -43q-518 0 -518 538zM236 1274q0 70 34.5 94.5t110.5 24.5q72 0 106.5 -24.5t34.5 -94.5q0 -68 -34.5 -93.5t-106.5 -25.5 q-74 0 -109.5 25.5t-35.5 93.5zM289 524q0 -170 63.5 -265t231.5 -95q170 0 234.5 94t64.5 266q0 168 -63.5 264.5t-233.5 96.5q-168 0 -232.5 -96.5t-64.5 -264.5zM647 1274q0 70 36 94.5t112 24.5q72 0 105.5 -24.5t33.5 -94.5q0 -68 -35 -93.5t-104 -25.5 q-76 0 -112 25.5t-36 93.5z" />
<glyph unicode="&#xf7;" horiz-adv-x="1300" d="M82 432v184h1137v-184h-1137zM502 106q0 70 35.5 94.5t109.5 24.5q72 0 106.5 -24.5t34.5 -94.5q0 -68 -34.5 -94t-106.5 -26q-74 0 -109.5 26.5t-35.5 93.5zM502 942q0 68 35.5 94.5t109.5 26.5q72 0 106.5 -26.5t34.5 -94.5t-34.5 -93.5t-106.5 -25.5 q-74 0 -109.5 25.5t-35.5 93.5z" />
<glyph unicode="&#xf8;" d="M66 524q0 111 24.5 202t79.5 170t161.5 123t254.5 44q53 0 100 -6l43 125h213l-61 -183q225 -127 225 -475q0 -113 -24.5 -204t-82 -169.5t-163 -121.5t-252.5 -43q-31 0 -47 2l-41 -123h-215l55 162q-270 109 -270 497zM289 524q0 -233 110 -311l228 670q-12 2 -41 2 q-168 0 -232.5 -96.5t-64.5 -264.5zM596 164q162 4 224.5 98t62.5 262q0 193 -72 277z" />
<glyph unicode="&#xf9;" horiz-adv-x="1159" d="M90 473v576h215v-592q0 -154 50.5 -220.5t209.5 -66.5q158 0 213.5 71.5t55.5 225.5v582h221v-1049h-121l-45 152q-35 -68 -130 -117t-255 -49q-127 0 -210 32.5t-127 101t-60.5 150.5t-16.5 203zM137 1268v178l881 -137v-183z" />
<glyph unicode="&#xfa;" horiz-adv-x="1159" d="M90 473v576h215v-592q0 -154 50.5 -220.5t209.5 -66.5q158 0 213.5 71.5t55.5 225.5v582h221v-1049h-121l-45 152q-35 -68 -130 -117t-255 -49q-127 0 -210 32.5t-127 101t-60.5 150.5t-16.5 203zM137 1128v183l883 143v-182z" />
<glyph unicode="&#xfb;" horiz-adv-x="1159" d="M90 473v576h215v-592q0 -154 50.5 -220.5t209.5 -66.5q158 0 213.5 71.5t55.5 225.5v582h221v-1049h-121l-45 152q-35 -68 -130 -117t-255 -49q-127 0 -210 32.5t-127 101t-60.5 150.5t-16.5 203zM135 1124v181l443 172l442 -172v-181l-442 170z" />
<glyph unicode="&#xfc;" horiz-adv-x="1159" d="M90 473v576h215v-592q0 -154 50.5 -220.5t209.5 -66.5q158 0 213.5 71.5t55.5 225.5v582h221v-1049h-121l-45 152q-35 -68 -130 -117t-255 -49q-127 0 -210 32.5t-127 101t-60.5 150.5t-16.5 203zM229 1274q0 70 35 94.5t111 24.5q72 0 106.5 -24.5t34.5 -94.5 q0 -68 -35 -93.5t-106 -25.5q-74 0 -110 25.5t-36 93.5zM641 1274q0 70 36 94.5t111 24.5q72 0 106 -24.5t34 -94.5q0 -68 -35 -93.5t-105 -25.5q-76 0 -111.5 25.5t-35.5 93.5z" />
<glyph unicode="&#xfd;" d="M90 -66h217q4 -47 14.5 -76.5t37 -58t81 -42t138.5 -13.5q160 0 215 62.5t55 175.5v137q-86 -133 -334 -133q-240 0 -326 120.5t-86 368.5v574h215v-592q0 -154 50.5 -220.5t208 -66.5t215 71.5t57.5 225.5v582h217v-1057q0 -86 -19.5 -152.5t-68.5 -130t-150.5 -98.5 t-251.5 -35q-270 0 -377.5 94t-107.5 264zM143 1128v183l883 143v-182z" />
<glyph unicode="&#xfe;" horiz-adv-x="1187" d="M106 -410v1821h216v-491q90 143 356 143q442 0 442 -541q0 -537 -442 -536q-266 0 -356 139v-535h-216zM319 522q0 -176 58.5 -265t230.5 -89q170 0 231.5 89t61.5 265t-61.5 267.5t-227.5 91.5q-172 0 -232.5 -91.5t-60.5 -267.5z" />
<glyph unicode="&#xff;" d="M90 -66h217q4 -47 14.5 -76.5t37 -58t81 -42t138.5 -13.5q160 0 215 62.5t55 175.5v137q-86 -133 -334 -133q-240 0 -326 120.5t-86 368.5v574h215v-592q0 -154 50.5 -220.5t208 -66.5t215 71.5t57.5 225.5v582h217v-1057q0 -86 -19.5 -152.5t-68.5 -130t-150.5 -98.5 t-251.5 -35q-270 0 -377.5 94t-107.5 264zM236 1274q0 70 34.5 94.5t110.5 24.5q72 0 106.5 -24.5t34.5 -94.5q0 -68 -34.5 -93.5t-106.5 -25.5q-74 0 -109.5 25.5t-35.5 93.5zM647 1274q0 70 36 94.5t112 24.5q72 0 105.5 -24.5t33.5 -94.5q0 -68 -35 -93.5t-104 -25.5 q-76 0 -112 25.5t-36 93.5z" />
<glyph unicode="&#x152;" horiz-adv-x="2119" d="M92 655.5q0 145.5 29 258t96.5 210t194.5 149.5t309 52q270 0 407 -195l-2 181h912v-185h-686v-364h624v-189h-624v-389h686v-184h-912l2 178q-133 -193 -407 -192q-182 0 -310 52t-194.5 149.5t-95.5 210t-29 258zM322 655q0 -473 399 -473q405 0 405 471 q0 475 -405 475q-399 0 -399 -473z" />
<glyph unicode="&#x153;" horiz-adv-x="2017" d="M65.5 524.5q0.5 538.5 542.5 538.5q334 0 434 -229q88 229 424 229q535 0 490 -625h-799q16 -272 305 -272q227 0 267 156h229q-16 -150 -133 -243t-357 -93q-336 0 -424 229q-98 -229 -436 -229q-543 0 -542.5 538.5zM289 524q0 -172 68.5 -267t250.5 -95q184 0 254 94 t70 268q0 170 -67.5 266.5t-252 96.5t-254 -95.5t-69.5 -267.5zM1157 612h572q2 0 2 2v2q0 121 -70 194t-213 73q-272 0 -291 -271z" />
<glyph unicode="&#x178;" horiz-adv-x="1243" d="M-2 1311h238l378 -740l398 740h235l-518 -914v-397h-235v397zM266 1542q0 70 35 94.5t111 24.5q72 0 106.5 -24.5t34.5 -94.5q0 -68 -35 -93.5t-106 -25.5q-74 0 -110 26t-36 93zM678 1542q0 70 36 94.5t111 24.5q72 0 106 -24.5t34 -94.5q0 -68 -35 -93.5t-105 -25.5 q-76 0 -111.5 26t-35.5 93z" />
<glyph unicode="&#x2c6;" horiz-adv-x="1126" d="M123 1124v181l442 172l443 -172v-181l-443 170z" />
<glyph unicode="&#x2dc;" horiz-adv-x="1200" d="M115 1196q0 268 268 268q96 0 228 -71.5t196 -71.5q76 0 97.5 29.5t21.5 97.5h164q4 -27 4 -47q0 -127 -55.5 -193.5t-209.5 -66.5q-100 0 -240 73.5t-188 73.5q-66 0 -91 -31.5t-29 -99.5h-164q-2 25 -2 39z" />
<glyph unicode="&#x2000;" horiz-adv-x="933" />
<glyph unicode="&#x2001;" horiz-adv-x="1866" />
<glyph unicode="&#x2002;" horiz-adv-x="933" />
<glyph unicode="&#x2003;" horiz-adv-x="1866" />
<glyph unicode="&#x2004;" horiz-adv-x="622" />
<glyph unicode="&#x2005;" horiz-adv-x="466" />
<glyph unicode="&#x2006;" horiz-adv-x="311" />
<glyph unicode="&#x2007;" horiz-adv-x="311" />
<glyph unicode="&#x2008;" horiz-adv-x="233" />
<glyph unicode="&#x2009;" horiz-adv-x="373" />
<glyph unicode="&#x200a;" horiz-adv-x="103" />
<glyph unicode="&#x2010;" horiz-adv-x="765" d="M82 438v180h602v-180h-602z" />
<glyph unicode="&#x2011;" horiz-adv-x="765" d="M82 438v180h602v-180h-602z" />
<glyph unicode="&#x2012;" horiz-adv-x="765" d="M82 438v180h602v-180h-602z" />
<glyph unicode="&#x2013;" horiz-adv-x="1300" d="M82 438v180h1137v-180h-1137z" />
<glyph unicode="&#x2014;" horiz-adv-x="1667" d="M82 438v180h1503v-180h-1503z" />
<glyph unicode="&#x2018;" horiz-adv-x="417" d="M70 965l47 346h141l-18 -258q139 0 139 -131q0 -74 -40 -101.5t-120 -27.5q-86 0 -123.5 38t-25.5 134z" />
<glyph unicode="&#x2019;" horiz-adv-x="419" d="M53 1196q0 74 40 101.5t120 27.5q86 0 123.5 -38t25.5 -134l-47 -346h-141l19 258q-139 0 -140 131z" />
<glyph unicode="&#x201a;" horiz-adv-x="417" d="M53 121q0 74 40 101.5t120 27.5q86 0 123.5 -38t25.5 -134l-47 -346h-141l19 258q-139 0 -140 131z" />
<glyph unicode="&#x201c;" horiz-adv-x="841" d="M70 965l47 346h141l-18 -258q139 0 139 -131q0 -74 -40 -101.5t-120 -27.5q-86 0 -123.5 38t-25.5 134zM481 965l47 346h142l-19 -258q139 0 140 -131q0 -74 -40 -101.5t-120 -27.5q-86 0 -124 38t-26 134z" />
<glyph unicode="&#x201d;" horiz-adv-x="833" d="M53 1196q0 74 40 101.5t120 27.5q86 0 123.5 -38t25.5 -134l-47 -346h-141l19 258q-139 0 -140 131zM465 1196q0 74 40 101.5t120 27.5q86 0 123.5 -38t25.5 -134l-47 -346h-141l18 258q-139 0 -139 131z" />
<glyph unicode="&#x201e;" horiz-adv-x="833" d="M53 121q0 74 40 101.5t120 27.5q86 0 123.5 -38t25.5 -134l-47 -346h-141l19 258q-139 0 -140 131zM465 121q0 74 40 101.5t120 27.5q86 0 123.5 -38t25.5 -134l-47 -346h-141l18 258q-139 0 -139 131z" />
<glyph unicode="&#x2022;" horiz-adv-x="1679" d="M100 655q0 143 33 256t112 210.5t229.5 150.5t365.5 53q176 0 308 -36t213 -96t132 -149.5t69.5 -182.5t18.5 -208q0 -113 -18.5 -206t-69.5 -181t-132 -148.5t-213 -96t-308 -35.5t-308.5 35.5t-213 96t-131 148.5t-69 181.5t-18.5 207.5z" />
<glyph unicode="&#x2026;" horiz-adv-x="1300" d="M53 117q0 76 40 104.5t120 28.5q76 0 116 -28.5t40 -104.5q0 -74 -40 -102.5t-116 -28.5q-78 0 -119 28.5t-41 102.5zM492 117q0 76 40.5 104.5t120.5 28.5q76 0 116 -28.5t40 -104.5q0 -74 -40 -102.5t-116 -28.5q-80 0 -120.5 28.5t-40.5 102.5zM932 117q0 76 40 104.5 t117.5 28.5t118.5 -28.5t41 -104.5q0 -131 -159 -131q-78 0 -118 28.5t-40 102.5z" />
<glyph unicode="&#x202f;" horiz-adv-x="373" />
<glyph unicode="&#x2039;" horiz-adv-x="540" d="M53 522l215 439h217l-211 -439l211 -436h-217z" />
<glyph unicode="&#x203a;" horiz-adv-x="540" d="M53 86l213 436l-213 439h221l211 -439l-211 -436h-221z" />
<glyph unicode="&#x205f;" horiz-adv-x="466" />
<glyph unicode="&#x20ac;" horiz-adv-x="1499" d="M20 571v179h166q49 575 623 575q303 0 457.5 -146.5t154.5 -367.5h-231q-12 147 -106.5 237.5t-274.5 90.5q-362 0 -391 -389h563v-179h-567q33 -397 395 -397q356 0 381 330h231q0 -231 -152.5 -374.5t-459.5 -143.5q-586 0 -623 585h-166z" />
<glyph unicode="&#x2122;" horiz-adv-x="2027" d="M47 1311h701v-164h-252v-748h-197v748h-250zM842 397v914h278l260 -668l254 668h281v-914h-186v678l-275 -678h-151l-275 680v-680h-186z" />
<glyph unicode="&#x25fc;" horiz-adv-x="1044" d="M0 0v1044h1044v-1044h-1044z" />
<glyph unicode="&#xfb01;" horiz-adv-x="847" d="M2 870v131l150 46v100q0 166 93 238.5t302 72.5h250v-178h-224q-123 0 -169 -35t-46 -106v-90h439v-1049h-219v870h-220v-870h-206v870h-150z" />
<glyph unicode="&#xfb02;" horiz-adv-x="903" d="M2 870v131l150 46v100q0 166 93 238.5t302 72.5q131 0 250 -10v-1448h-219v870h-220v-870h-206v870h-150zM358 1049h220v231h-5q-123 0 -169 -32.5t-46 -102.5v-96z" />
</font>
</defs>
</svg>
